Skip to main content

Kung Fu Live at Stone Church on 2013-03-09

by Kung Fu



Set 1

01. Intro
02. Jun0on >
03. Bopcorn
04. Too High
05. Barometric Weather
06. You Know What I Mean
07. Letters From Bobby Portugal
08. Good To Your Earhole
09. Paragon

Set 2

01. Intro
02. Gung Ho
03. Ventriliquist >
04. God Made Me Funky
05. Scapegoat Blues
06. Tsar Bomba
07. Drop Dead Legs
08. encore break
09. Undone - The Sweater
10. 2nd encore break
11. Teen Town


Collection KungFuband
Band/Artist Kung Fu
Date March 9, 2013
Venue Stone Church
Location Newmarket, NH

Source Schoeps MK22/MK4>KC5>CMC6>Sonosax SX-R4(24bit/96khz) & SB>SX-R4
Lineage WAV>USB>Macbook Pro>Audacity(mixing)>Wave Editor(tracking,fades,resample(izotope)/dither(mbit+)to 16 bit/44.1k)>XAct(FLAC 8,ffp,fix sbe)
Taped by Andy Murray
Transferred by Andy Murray


Notes

Kung Fu
2013-03-09
Stone Church
Newmarket, NH

Taped by: Andy Murray
Transferred by: Andy Murray

mk22s were 21cm,110 degrees hung from center rail
mk4s were ORTF hung from center rail

Schoeps mk22> SchoepsNbox actives/Naiant PFAs>Sonosax SX-R4
Schoeps mk4>KC5>CMC6>Sonosax SX-R4(24bit/96khz) & Soundboard>SX-R4

Lineage: WAV>USB>Macbook Pro>Audacity(mixing)>Wave Editor(tracking,fades,resample(izotope)/dither(mbit+)to 16 bit/44.1k)>XAct(FLAC 8,ffp,fix sbe)

2 Sets

Set 1

01. Intro
02. Jun0on >
03. Bopcorn
04. Too High
05. Barometric Weather
06. You Know What I Mean
07. Letters From Bobby Portugal
08. Good To Your Earhole
09. Paragon

Set 2

01. Intro
02. Gung Ho
03. Ventriliquist >
04. God Made Me Funky
05. Scapegoat Blues
06. Tsar Bomba
07. Drop Dead Legs
08. encore break
09. Undone - The Sweater
10. 2nd encore break
11. Teen Town

Todd Stoops - keyboards
Rob Somerville - saxaphone
Tim Palmieri - guitar
Adrian Tramontano - drums
Chris DeAngelis - bass

http://www.kungfumusic.com

length expanded size cdr WAVE problems fmt ratio filename
1:33.06 16419356 B --- -- ----- wav 1.0000 kungfu2013-03-09_mk4mk22sbmix_1644_d1t01.wav
5:13.40 55307324 B --- -- ----- wav 1.0000 kungfu2013-03-09_mk4mk22sbmix_1644_d1t02.wav
10:03.53 106493900 B --- -- ----- wav 1.0000 kungfu2013-03-09_mk4mk22sbmix_1644_d1t03.wav
7:12.30 76275404 B --- -- ----- wav 1.0000 kungfu2013-03-09_mk4mk22sbmix_1644_d1t04.wav
5:00.65 53072924 B --- -- ----- wav 1.0000 kungfu2013-03-09_mk4mk22sbmix_1644_d1t05.wav
10:02.67 106350428 B --- -- ----- wav 1.0000 kungfu2013-03-09_mk4mk22sbmix_1644_d1t06.wav
10:22.71 109887836 B --- -- ----- wav 1.0000 kungfu2013-03-09_mk4mk22sbmix_1644_d1t07.wav
5:53.19 62313932 B --- -- ----- wav 1.0000 kungfu2013-03-09_mk4mk22sbmix_1644_d1t08.wav
9:35.54 101557052 B --- -- ----- wav 1.0000 kungfu2013-03-09_mk4mk22sbmix_1644_d1t09.wav
0:29.46 5223836 B --- -- ----- wav 1.0000 kungfu2013-03-09_mk4mk22sbmix_1644_d2t01.wav
10:20.68 109527980 B --- -- ----- wav 1.0000 kungfu2013-03-09_mk4mk22sbmix_1644_d2t02.wav
11:03.04 116962652 B --- -- ----- wav 1.0000 kungfu2013-03-09_mk4mk22sbmix_1644_d2t03.wav
11:09.10 118035164 B --- -- ----- wav 1.0000 kungfu2013-03-09_mk4mk22sbmix_1644_d2t04.wav
9:21.04 98969852 B --- -- ----- wav 1.0000 kungfu2013-03-09_mk4mk22sbmix_1644_d2t05.wav
11:47.36 124799516 B --- -- ----- wav 1.0000 kungfu2013-03-09_mk4mk22sbmix_1644_d2t06.wav
9:09.17 96883628 B --- -- ----- wav 1.0000 kungfu2013-03-09_mk4mk22sbmix_1644_d2t07.wav
1:58.56 20946956 B --- -- ----- wav 1.0000 kungfu2013-03-09_mk4mk22sbmix_1644_d2t08.wav
5:35.35 59176364 B --- -- ----- wav 1.0000 kungfu2013-03-09_mk4mk22sbmix_1644_d2t09.wav
1:45.41 18618476 B --- -- ----- wav 1.0000 kungfu2013-03-09_mk4mk22sbmix_1644_d2t10.wav
7:29.13 79234220 B --- -- ----- wav 1.0000 kungfu2013-03-09_mk4mk22sbmix_1644_d2t11.wav
145:07.60 1536056800 B 1.0000 (20 files)

Reviews

There are no reviews yet. Be the first one to write a review.
Download Options
753.7M
FLAC
90.1M
OGG VORBIS
6.5K
TEXT
38.1K
TORRENT
192.9M
VBR M3U
192.9M
VBR MP3
-
VBR ZIP
In Collection
Kung Fu
In Collection
Live Music Archive
Uploaded by
andyjah
on 3/11/2013
Views
149
Favorites
1
PEOPLE ALSO FOUND
Kung Fu
by Kung Fu
51
0
0
Source: Schoeps MK41>KC5>CMC6>Sonosax SX-R4(24bit/96khz)
Kung Fu
by Kung Fu
42
0
0
Source: Schoeps MK22/MK4/sb>Sonosax SX-R4
Kung Fu
by Kung Fu
30
0
0
Source: Schoeps mk41>Sonosax SX-R4
Kung Fu
by Kung Fu
80
0
0
Source: Schoeps MK22/MK4/sb>Sonosax SX-R4
Kung Fu
by Kung Fu
37
0
0
Source: Schoeps MK4>Sonosax SX-R4
Kung Fu
by Kung Fu
148
0
0
Source: Schoeps MK4>Nbob actives>Sonosax SX-R4(24bit/48khz)
Kung Fu
150
0
1
( 1 reviews )
Source: Schoeps MK41>KC5>CMC6>Sonosax SX-M2>Apogee Mini-me(aes out,24bit/96khz)>COAX>Edirol R-44 & Soundboard>R-44
Kung Fu
by Kung Fu
243
0
1
( 1 reviews )
Source: Schoeps MK4>KC5>CMC6>Sonosax SX-M2>Apogee Mini-me(aes out,24bit/96khz)>COAX>Edirol R-44
Kung Fu
by Kung Fu
55
0
0
Source: Schoeps MK41>KC5>CMC6>Sonosax SX-R4(24bit/96khz)
Kung Fu
by Kung Fu
24
0
0
Source: Schoeps mk41>Sonosax SX-R4